Escape the Night (s01e02) The Ungodly Machine | YouTube Red (720pHD) WEBRip mp4 [Zeus]

seeders: 19
leechers: 2
updated:
Added by Zeus19.53K in TV
Torrent verified. Downloaded 342 times.

DownloadFast Safe Anonymous
movies, software, shows...
  • View all Escape the Night episodes
  • Episode: S01E02
  • IMDb link: 5838282
  • TVmaze link: Escape the Night
  • Summary:

    In this surreality competition series, hosted by Joey Graceffa, 10 guests are invited from the modern world to attend a dinner at his newly acquired mansion estate, which has been locked in the 1920's; when America was roaring... roaring with madness. This is a dinner party to die for. No one is safe.

    Written by Zeus19.53K
Available in versions: 2160p1080p720p
Escape the Night (s01e02) The Ungodly Machine | YouTube Red (720pHD) WEBRip mp4 [Zeus] (Size: 327.43 MB)
  Escape the Night (s01e02) The Ungodly Machine YouTube Red (720pHD) WEBRip mp4 [Zeus].mp4 327.43 MB

Description

image
Format : MPEG-4
Format profile : Base Media / Version 2
Codec ID : mp42 (isom/mp42)
File size : 327 MiB
Duration : 23mn 55s
Overall bit rate mode : Variable
Overall bit rate : 1 914 Kbps
Encoded date : UTC 2016-06-10 01:42:12
Tagged date : UTC 2016-06-10 01:42:12
gsst : 0
gstd : 1435086

Video
ID : 1
Format : AVC
Format/Info : Advanced Video Codec
Format profile : [email protected]
Format settings, CABAC : Yes
Format settings, ReFrames : 3 frames
Codec ID : avc1
Codec ID/Info : Advanced Video Coding
Duration : 23mn 55s
Bit rate : 1 784 Kbps
Width : 1 280 pixels
Height : 720 pixels
Display aspect ratio : 16:9
Frame rate mode : Variable
Frame rate : 23.976 (24000/1001) fps
Minimum frame rate : 23.974 fps
Maximum frame rate : 23.981 fps
Color space : YUV
Chroma subsampling : 4:2:0
Bit depth : 8 bits
Scan type : Progressive
Bits/(Pixel*Frame) : 0.081
Stream size : 305 MiB (93%)
Title : ISO Media file produced by Google Inc.
Encoded date : UTC 2016-06-10 01:42:12
Tagged date : UTC 2016-06-10 01:42:12
Color range : Limited
Color primaries : BT.709
Transfer characteristics : BT.709
Matrix coefficients : BT.709

Audio
ID : 2
Format : AAC
Format/Info : Advanced Audio Codec
Format profile : LC
Codec ID : 40
Duration : 23mn 55s
Bit rate mode : Variable
Bit rate : 126 Kbps
Channel(s) : 2 channels
Channel positions : Front: L R
Sampling rate : 44.1 KHz
Frame rate : 43.066 fps (1024 spf)
Compression mode : Lossy
Stream size : 21.5 MiB (7%)
Title : ISO Media file produced by Google Inc.
Encoded date : UTC 2016-06-10 01:42:12
Tagged date : UTC 2016-06-10 01:42:12

Related Torrents

torrent name size files age seed leech

Sharing Widget


Download torrent
327.43 MB
seeders:16
leechers:2
Escape the Night (s01e02) The Ungodly Machine | YouTube Red (720pHD) WEBRip mp4 [Zeus]



To share this torrent use the code below and insert it into comments, status messages, forum posts or your signature.

Torrent: Escape the Night (s01e02) Th...d (720pHD) WEBRip mp4 [Zeus]

Trackers

tracker name
udp://tracker.openbittorrent.com:80/announce
udp://tracker.publicbt.com:80/announce
udp://tracker.coppersurfer.tk:6969/announce
udp://glotorrents.pw:6969/announce
udp://p4p.arenabg.com:1337/announce
udp://tracker.ccc.de:80/announce
udp://tracker.opentrackr.org:1337/announce
µTorrent compatible trackers list

Locations

name
KickassTorrents
Torrent hash: B547A54A9175E172FF788B6D236DB6830CEB092C

All Comments

audio
8/10
video
9/10
please, leave only comments related to that torrent
Sign In

audio: 6video: 9
The audio seems to be off a bit for me. Using VLC right now.

Last edited by 3.14rate1, 3 weeks ago

audio: 9video: 9
Thanks for sharing

User Opinions

davidlb12.07K, catfondue3776, DarthKitsune2207, oppai5541183, dohers124823, tout787, FozziO467, muahid338, k2cs84, lucasdinosaur57544 ... And 12 more
Report a bug Open chat