Percy Jackson And The Olympians The Lightning Thief 2010 BluRay 720p 1080p x264 AC3 HDiY

seeders: 0
leechers: 1
updated:
Added in Movies > Highres Movies
Torrent verified. Downloaded 10 times.

DownloadFast Safe Anonymous
movies, software, shows...
Summary:

A teenager discovers he's the descendant of a Greek god and sets out on an adventure to settle an on-going battle between the gods.

Written by 5fingerdis65.85K
Percy Jackson And The Olympians The Lightning Thief 2010 BluRay 720p 1080p x264 AC3 HDiY (Size: 8.74 GB)
  270 bytes
  -远征的召唤.url 317 bytes
  272 bytes
  Percy Jackson And The Olympians The Lightning Thief.2010.BluRay.1080p.x264.DTS-HDiY.jpg 184.58 KB
  Percy Jackson And The Olympians The Lightning Thief.2010.BluRay.1080p.x264.DTS-HDiY.mkv 6.55 GB
  Percy Jackson And The Olympians The Lightning Thief.2010.BluRay.720p.x264.AC3-HDiY.jpg 183.2 KB
  Percy Jackson And The Olympians The Lightning Thief.2010.BluRay.720p.x264.AC3-HDiY.mkv 2.18 GB
  101.1 KB
  15.4 KB
  @bbs.wofei.net.txt 1.06 KB
  5.99 KB
  122.25 KB
  272 bytes

Description



Format : Matroska
File size : 2.18 GiB
Duration : 1h 57mn
Overall bit rate : 2 652 Kbps
Movie name : Recoded By HDiY Team
Encoded date : UTC 2010-06-15 17:51:09
Writing application : mkvmerge v3.4.0 (\'Rapunzel\') ±àÒëÓÚ May 15 2010 09:38:20
Writing library : libebml v0.8.0 + libmatroska v0.9.0
Video #1
ID : 1
Format : AVC
Format/Info : Advanced Video Codec
Format profile : [email protected]
Format settings, CABAC : Yes
Format settings, ReFrames : 6 frames
Muxing mode : Container [email protected]
Codec ID : V_MPEG4/ISO/AVC
Duration : 1h 57mn
Bit rate : 2 151 Kbps
Nominal bit rate : 2 202 Kbps
Width : 1 280 pixels
Height : 720 pixels

Display aspect ratio : 16:9
Frame rate : 24.000 fps
Resolution : 8 bits
Colorimetry : 4:2:0
Scan type : Progressive
Bits/(Pixel*Frame) : 0.097
Stream size : 1.77 GiB (81%)
Title : [email protected]
Writing library : x264 core 80 r1376M 3feaec2
Language : English
Audio #2
ID : 2
Format : AC-3
Format/Info : Audio Coding 3
Codec ID : A_AC3
Duration : 1h 57mn
Bit rate mode : Constant
Bit rate : 448 Kbps
Channel(s) : 6 channels
Channel positions : Front: L C R, Surround: L R, LFE
Sampling rate : 48.0 KHz
Stream size : 377 MiB (17%)
Title : English
Language : English



Related Torrents

torrent name size files age seed leech

Sharing Widget


Download torrent
8.74 GB
seeders:0
leechers:2
Percy Jackson And The Olympians The Lightning Thief 2010 BluRay 720p 1080p x264 AC3 HDiY



To share this torrent use the code below and insert it into comments, status messages, forum posts or your signature.

Torrent: Percy Jackson And The Olympi...Ray 720p 1080p x264 AC3 HDiY

Trackers

tracker name
udp://tracker.openbittorrent.com:80/announce
udp://tracker.publicbt.com:80/announce
http://exodus.1337x.org/announce
http://nemesis.1337x.org/announce
http://bt1.the9.com:6969/announce
http://tracker.openbittorrent.com/announce
udp://tracker.torrentbox.com:2710/announce
http://tracker.ilibr.org/announce
http://tracker.publicbt.com/announce
http://tracker.torrentbox.com:2710/announce
http://9.rarbg.com:2710/announce
µTorrent compatible trackers list

Locations

name
ExtraTorrent
Torrent hash: 5f324c15635e6634524ba11bae7ca4236b8d0a19

All Comments

audio
10/10
video
10/10
please, leave only comments related to that torrent
Sign In


User Opinions

Report a bug Open chat