The Conjuring 2 - HDTC - 2016 - Dual Audio (English - Hindi) - x264 - AAC - Makintos13

seeders: 170
leechers: 33
updated:
Added by FireofSword93.47K in Movies
Torrent verified. Downloaded 6,738 times.

DownloadFast Safe Anonymous
movies, software, shows...
  • add The Conjuring 2 to bookmarks
  • Release date: 10 June 2016
  • Writers: Carey Hayes (screenplay), Chad Hayes (screenplay), James Wan (screenplay), David Leslie Johnson (screenplay), Carey Hayes (story), Chad Hayes (story), James Wan (story)
  • Director: James Wan
  • Languages: English , Hindi
Cast: Vera Farmiga, Patrick Wilson and others
Summary:

Lorraine and Ed Warren travel to north London to help a single mother raising four children alone in a house plagued by malicious spirits.

Written by Sasidhar.32.13K
The Conjuring 2 - HDTC - 2016 - Dual Audio (English - Hindi) - x264 - AAC - Makintos13 (Size: 699.15 MB)
  The Conjuring. - HDTC - 2016 - Dual Audio (English - Hindi) - x264 - AAC - Makintos13.mkv 699.15 MB

Description

The Conjuring - HDTC - 2016 - Dual Audio (English - Hindi) - x264 - AAC - Makintos13

image


Format : Matroska
Format version : Version 4 / Version 2
File size : 699 MiB
Duration : 2h 7mn
Overall bit rate : 769 Kbps
Movie name : This Movie Is Downloaded From - KatmovieHD.com
Encoded date : UTC 2016-06-14 03:04:27
Writing application : mkvmerge v9.1.0 ('Little Earthquakes') 64bit
Writing library : libebml v1.3.3 + libmatroska v1.4.4 / Lavf55.12.0

Video
ID : 3
Format : AVC
Format/Info : Advanced Video Codec
Format profile : [email protected]
Format settings, CABAC : Yes
Format settings, ReFrames : 4 frames
Codec ID : V_MPEG4/ISO/AVC
Duration : 2h 6mn
Bit rate : 638 Kbps
Width : 720 pixels
Height : 320 pixels
Display aspect ratio : 2.25:1
Frame rate mode : Constant
Frame rate : 29.970 (30000/1001) fps
Color space : YUV
Chroma subsampling : 4:2:0
Bit depth : 8 bits
Scan type : Progressive
Bits/(Pixel*Frame) : 0.092
Stream size : 580 MiB (83%)
Default : Yes
Forced : No

Audio #1
ID : 1
Format : AAC
Format/Info : Advanced Audio Codec
Format profile : LC
Codec ID : A_AAC
Duration : 2h 7mn
Bit rate : 64.1 Kbps
Channel(s) : 2 channels
Channel positions : Front: L R
Sampling rate : 48.0 KHz
Frame rate : 46.875 fps (1024 spf)
Compression mode : Lossy
Delay relative to video : 46ms
Stream size : 58.2 MiB (8%)
Title : Stereo
Language : Hindi
Default : Yes
Forced : No

Audio #2
ID : 2
Format : AAC
Format/Info : Advanced Audio Codec
Format profile : LC
Codec ID : A_AAC
Duration : 2h 6mn
Bit rate : 64.4 Kbps
Channel(s) : 2 channels
Channel positions : Front: L R
Sampling rate : 48.0 KHz
Frame rate : 46.875 fps (1024 spf)
Compression mode : Lossy
Delay relative to video : 46ms
Stream size : 58.5 MiB (8%)
Title : Stereo
Default : No
Forced : No

Screens:

image image image image image image image image image image

Related Torrents

torrent name size files age seed leech

Sharing Widget


Download torrent
699.15 MB
seeders:180
leechers:29
The Conjuring 2 - HDTC - 2016 - Dual Audio (English - Hindi) - x264 - AAC - Makintos13



To share this torrent use the code below and insert it into comments, status messages, forum posts or your signature.

Torrent: The Conjuring 2 - HDTC - 201...i) - x264 - AAC - Makintos13

Trackers

tracker name
udp://tracker.openbittorrent.com:80/announce
udp://tracker.coppersurfer.tk:6969/announce
udp://9.rarbg.me:2710/announce
udp://tracker.trackerfix.com:80/announce
udp://glotorrents.pw:6969/announce
udp://explodie.org:6969/announce
udp://9.rarbg.to:2710/announce
udp://tracker.opentrackr.org:1337/announce
udp://tracker.piratepublic.com:1337/announce
udp://tracker.sktorrent.net:6969/announce
ĀµTorrent compatible trackers list

Locations

name
KickassTorrents
Torrent hash: 8847FD899C90F627FC5B77882DAF7A323306498F

Top Comments

2
g3m6961157
This is really a hdtc? Looks like hdts for me

All Comments

audio
6/10
video
6/10
please, leave only comments related to that torrent
Sign In

are the movie in a good grapic or not??blurr or not???beuty or not??
audio: 6video: 6
nice
This is really a hdtc? Looks like hdts for me
Its a hdts not a tc

audio: 5video: 5
not so good watchable

audio: 7video: 7

User Opinions

mystikrebel9048, RatedRhy6897, cyborg0091798, drsuraj1522, POP07575, anurag14356, majeedjani343, Vtino263, shail007253, xtru14323 ... And 18 more
g3m6961157, kastss187, FrankieKramer109, Haseeblee54
Report a bug Open chat